Information to the news
  • Views: 0
  • Author: sddd
  • Date: 2-01-2018, 08:57
2-01-2018, 08:57

Free Download Stevie Wonder - Global Citizens Festival (2017) [HDTV, 1080i]

Category: Music / Music Video

Stevie Wonder - Global Citizens Festival (2017) [HDTV, 1080i]
Stevie Wonder - Global Citizens Festival (2017)
TS: MPEG4 Video (H264) 1920x1080 29.97fps | MPEG 2 ch, 256kbps
Rhythm & Blues, Funk, Soul | 01:29:58 | ~ 12.87 Gb
~ Stevie Wonder Live at Great Lawn in Central Park, New York, NY, USA on September 23, 2017 ~

Tracklist:
Master Blaster (Jammin')
Higher Ground
As If You Read My Mind
Signed, Sealed, Delivered I'm Yours
Overjoyed
I Just Called to Say I Love You
Don't You Worry 'bout a Thing
Living for the City
Isn't She Lovely (Aisha (his daughter who he wrote the song for) joined him on stage and sat with him as he played it)
Sir Duke
You Are the Sunshine of My Life (Just a snippet stopped in favor of the next song, seems like he intended to come back to it but deci)
My Cherie Amour (first part done with Stevie solo leading the audience in singing)
We Are the World (USA for Africa cover)
Get Lucky (Daft Punk cover) (with Pharrell Williams)
Superstition (with Pharrell Williams)
Happy (Pharrell Williams cover) (with Pharrell Williams)
Imagine (John Lennon cover) (Stevie praised John Lennon, who lived and died just ten blocks away. The song was played on a Harpej)
Happy (Pharrell Williams cover) (with Pharrell Williams) (reprise)
I Wish (done standing from the side of the stage with his singers and family as he gave his farewells)


General
ID : 1 (0x1)
Complete name : W:\UP\Mix\Stevie Wonder 2017 - Global Citizens Festival\Stevie Wonder - Global Citizens Festival (Central Park, New York, NY) 2017 .ts
Format : MPEG-TS
File size : 12.3 GiB
Duration : 1h 29mn
Start time : UTC 2017-09-24 00:21:52
End time : UTC 2017-09-24 01:51:49
Overall bit rate mode : Variable
Overall bit rate : 19.5 Mbps
Network name : NBC News
Original network name : Astra Satellite Network 19,2'E
Frequency : 4080000000
OrbitalPosition : 97.0W
Video
ID : 101 (0x65)
Menu ID : 1 (0x1)
Format : AVC
Format/Info : Advanced Video Codec
Format profile : HighL4.0
Format settings, CABAC : Yes
Format settings, ReFrames : 3 frames
Format settings, GOP : M=1, N=30
Codec ID : 27
Duration : 1h 29mn
Bit rate mode : Constant
Bit rate : 18.5 Mbps
Width : 1 920 pixels
Height : 1 080 pixels
Display aspect ratio : 16:9
Frame rate : 29.970 fps
Color space : YUV
Chroma subsampling : 4:2:0
Bit depth : 8 bits
Scan type : Interlaced
Scan order : Top Field First
Bits/(Pixel*Frame) : 0.298
Stream size : 11.3 GiB (92%)
Color primaries : BT.709
Transfer characteristics : BT.709
Matrix coefficients : BT.709
Audio #1
ID : 256 (0x100)
Menu ID : 1 (0x1)
Format : MPEG Audio
Format version : Version 1
Format profile : Layer 2
Codec ID : 3
Duration : 1h 29mn
Bit rate mode : Constant
Bit rate : 256 Kbps
Channel(s) : 2 channels
Sampling rate : 48.0 KHz
Compression mode : Lossy
Delay relative to video : -63ms
Stream size : 165 MiB (1%)
Language : English
Audio #2
ID : 257 (0x101)
Menu ID : 1 (0x1)
Format : MPEG Audio
Format version : Version 1
Format profile : Layer 2
Codec ID : 3
Duration : 1h 29mn
Bit rate mode : Constant
Bit rate : 256 Kbps
Channel(s) : 2 channels
Sampling rate : 48.0 KHz
Compression mode : Lossy
Delay relative to video : -65ms
Stream size : 165 MiB (1%)
Language : English
Text
ID : 101 (0x65)-1
Menu ID : 1 (0x1)
Format : EIA-708
Muxing mode : A/53 / DTVCC Transport
Muxing mode, more info : Muxed in Video #1
Duration : 1h 29mn
Bit rate mode : Constant
Stream size : 0.00 Byte (0%)
Language : English
Menu
ID : 32 (0x20)
Menu ID : 1 (0x1)
Duration : 1h 29mn
List : 101 (0x65) (AVC) / 256 (0x100) (MPEG Audio, English) / 257 (0x101) (MPEG Audio, English)
Language : / English / English
Service name : THUNDER ENC2 PATH1 B
Service provider : NBC News
Service type : advanced codec HD digital television
UTC 2017-09-24 00:00:00 : en:THUNDER ENC2 PATH1 B / en: / / / 24:00:00 / Running


Stevie Wonder - Global Citizens Festival (2017) [HDTV, 1080i]


Stevie Wonder - Global Citizens Festival (2017) [HDTV, 1080i]


Stevie Wonder - Global Citizens Festival (2017) [HDTV, 1080i]


Stevie Wonder - Global Citizens Festival (2017) [HDTV, 1080i]


Stevie Wonder - Global Citizens Festival (2017) [HDTV, 1080i]


Stevie Wonder - Global Citizens Festival (2017) [HDTV, 1080i]

Download link :
(If you need these, buy and download immediately before they are delete)
Nitroflare.com (Fast Speed):
http://nitroflare.com/view/38398D1FF1CAB78/21lyv.Stevie.Wonder..Global.Citizens.Festival.2017.HDTV.1080i.tut2u.part01.rar
http://nitroflare.com/view/06690BA0D507DDC/21lyv.Stevie.Wonder..Global.Citizens.Festival.2017.HDTV.1080i.tut2u.part02.rar
http://nitroflare.com/view/E594C75BA8EE050/21lyv.Stevie.Wonder..Global.Citizens.Festival.2017.HDTV.1080i.tut2u.part03.rar
http://nitroflare.com/view/052D8F9C4BAF828/21lyv.Stevie.Wonder..Global.Citizens.Festival.2017.HDTV.1080i.tut2u.part04.rar
http://nitroflare.com/view/317DC0E09BE3B58/21lyv.Stevie.Wonder..Global.Citizens.Festival.2017.HDTV.1080i.tut2u.part05.rar
http://nitroflare.com/view/7F12AA1C7AD1A18/21lyv.Stevie.Wonder..Global.Citizens.Festival.2017.HDTV.1080i.tut2u.part06.rar
http://nitroflare.com/view/3EA84E77E290504/21lyv.Stevie.Wonder..Global.Citizens.Festival.2017.HDTV.1080i.tut2u.part07.rar
http://nitroflare.com/view/00BA2A37C463534/21lyv.Stevie.Wonder..Global.Citizens.Festival.2017.HDTV.1080i.tut2u.part08.rar
http://nitroflare.com/view/D16A5AD627261E6/21lyv.Stevie.Wonder..Global.Citizens.Festival.2017.HDTV.1080i.tut2u.part09.rar
http://nitroflare.com/view/2EC86E0BE08DBB2/21lyv.Stevie.Wonder..Global.Citizens.Festival.2017.HDTV.1080i.tut2u.part10.rar
http://nitroflare.com/view/DA3A4BE211084B0/21lyv.Stevie.Wonder..Global.Citizens.Festival.2017.HDTV.1080i.tut2u.part11.rar
http://nitroflare.com/view/82E7BFC3E8C10E3/21lyv.Stevie.Wonder..Global.Citizens.Festival.2017.HDTV.1080i.tut2u.part12.rar
http://nitroflare.com/view/E8CD0F0ABE2B805/21lyv.Stevie.Wonder..Global.Citizens.Festival.2017.HDTV.1080i.tut2u.part13.rar

Rapidgator.net:
http://rapidgator.net/file/d9038ae4d5c93c42c40e6d46cd3e2e58/21lyv.Stevie.Wonder..Global.Citizens.Festival.2017.HDTV.1080i.tut2u.part01.rar.html
http://rapidgator.net/file/0034d4729e3831c19845bab773769369/21lyv.Stevie.Wonder..Global.Citizens.Festival.2017.HDTV.1080i.tut2u.part02.rar.html
http://rapidgator.net/file/2dc2e842d5c6401768f9ebd562ad612a/21lyv.Stevie.Wonder..Global.Citizens.Festival.2017.HDTV.1080i.tut2u.part03.rar.html
http://rapidgator.net/file/b19b01a5d8f9eb67a931ea13ebb8611d/21lyv.Stevie.Wonder..Global.Citizens.Festival.2017.HDTV.1080i.tut2u.part04.rar.html
http://rapidgator.net/file/321b2d796a91d9737fe5769d98e2222f/21lyv.Stevie.Wonder..Global.Citizens.Festival.2017.HDTV.1080i.tut2u.part05.rar.html
http://rapidgator.net/file/941f84124891a104b28837290409456d/21lyv.Stevie.Wonder..Global.Citizens.Festival.2017.HDTV.1080i.tut2u.part06.rar.html
http://rapidgator.net/file/60c57ecd6e0666baa3e1f18dd31e0ad2/21lyv.Stevie.Wonder..Global.Citizens.Festival.2017.HDTV.1080i.tut2u.part07.rar.html
http://rapidgator.net/file/e0eab47e117db161a5ac744bc13dffef/21lyv.Stevie.Wonder..Global.Citizens.Festival.2017.HDTV.1080i.tut2u.part08.rar.html
http://rapidgator.net/file/25259f51f2d109edc2025f00929c03d3/21lyv.Stevie.Wonder..Global.Citizens.Festival.2017.HDTV.1080i.tut2u.part09.rar.html
http://rapidgator.net/file/c4d9834fe092cb792ddffbd98bc2a538/21lyv.Stevie.Wonder..Global.Citizens.Festival.2017.HDTV.1080i.tut2u.part10.rar.html
http://rapidgator.net/file/665f1d2edc12d2a4e8903c244a44a814/21lyv.Stevie.Wonder..Global.Citizens.Festival.2017.HDTV.1080i.tut2u.part11.rar.html
http://rapidgator.net/file/a56dacb11a6458a4d6ce6c157935fa9b/21lyv.Stevie.Wonder..Global.Citizens.Festival.2017.HDTV.1080i.tut2u.part12.rar.html
http://rapidgator.net/file/938ae03e8e97ae74c5c46e2645e926b7/21lyv.Stevie.Wonder..Global.Citizens.Festival.2017.HDTV.1080i.tut2u.part13.rar.html
Links are Interchangeable - Single Extraction - Premium is support resumable
UploadGIG.com
Dear visitor, you entered the site as an unregistered user.
We recommend you to register or login to the website using your name.

Tags

News archive

^